Torrents.DataHunt - Поиск по торрент-трекерам - Скачать (Psy-Trance) Protoculture - Refractions - 2003, FLAC (tracks+.cue), lossless

Главная / RuTracker.org / Trance, Goa Trance, Psy-Trance, PsyChill, Ambient Dub / Goa Trance, Psy-Trance (Lossless) / (Psy-Trance) Protoculture - Refractions - 2003, FLAC (tracks+.cue), lossless

(Psy-Trance) Protoculture - Refractions - 2003, FLAC (tracks+.cue), lossless

Скачать (Psy-Trance) Protoculture - Refractions - 2003, FLAC (tracks+.cue), lossless
Приблизительное число скачиваний: 2411, максимальная скорость: 4065 кб/с

Информация о раздаче
Название: (Psy-Trance) Protoculture - Refractions - 2003, FLAC (tracks+.cue), lossless
Размер: 472 Мб
Трекер: RuTracker.org
Автор раздачи: MISHKA-N@VIG@TOR-
Общее число просмотров страницы: 171
Число просмотров страницы вчера: 0
Число просмотров страницы сегодня: 170
Рейтинг: Рейтинг: 3.0




Описание раздачи:

Protoculture - Refractions
Жанр: Psy-Trance
Год выпуска диска: 2003
Производитель диска: UK
Аудио кодек: FLAC
Тип рипа: tracks+.cue
Битрейт аудио: lossless
Продолжительность: 01:15:45

Треклист:
01. Homeworld 08:19
02. Silicon Sunrise 07:29
03. Magnetik 08:06
04. Refractions 07:23
05. Hallusignorita 07:29
06. More Directions 07:44
07. Avalon 08:04
08. High Orbit 07:13
09. Melody 4 Machine 10:00
EAC 
Exact Audio Copy V0.99 prebeta 4 from 23. January 2008
EAC extraction logfile from 18. April 2008, 15:56
Protoculture / Refractions
Used drive : Optiarc DVD RW AD-7530B Adapter: 0 ID: 0
Read mode : Secure
Utilize accurate stream : Yes
Defeat audio cache : Yes
Make use of C2 pointers : No
Read offset correction : 6
Overread into Lead-In and Lead-Out : No
Fill up missing offset samples with silence : Yes
Delete leading and trailing silent blocks : No
Null samples used in CRC calculations : Yes
Used interface : Installed external ASPI interface
Gap handling : Appended to previous track
Used output format : User Defined Encoder
Selected bitrate : 128 kBit/s
Quality : High
Add ID3 tag : No
Command line compressor : C:Program FilesFLACflac.exe
Additional command line options : -8 -A tukey(0.25) -A gauss(0.1875) -b 4096 -V -T "artist=%a" -T "title=%t" -T "album=%g" -T "date=%y" -T "tracknumber=%n" -T "genre=%m" %s --sector-align
TOC of the extracted CD
Track | Start | Length | Start sector | End sector
---------------------------------------------------------
1 | 0:00.00 | 8:19.24 | 0 | 37448
2 | 8:19.24 | 7:24.18 | 37449 | 70766
3 | 15:43.42 | 8:08.39 | 70767 | 107405
4 | 23:52.06 | 7:23.40 | 107406 | 140670
5 | 31:15.46 | 7:28.57 | 140671 | 174327
6 | 38:44.28 | 7:43.37 | 174328 | 209089
7 | 46:27.65 | 8:03.13 | 209090 | 245327
8 | 54:31.03 | 7:13.20 | 245328 | 277822
9 | 61:44.23 | 10:00.34 | 277823 | 322856
10 | 74:16.57 | 1:06.30 | 334257 | 339236
Track 1
Filename C:Music_ripsProtoculture - Refractions (2003)1 - Protoculture - Homeworld.wav
Pre-gap length 0:00:02.00
Peak level 98.8 %
Track quality 100.0 %
Test CRC 93E856E5
Copy CRC 93E856E5
Accurately ripped (confidence 2) [35D7D5BE]
Copy OK
Track 2
Filename C:Music_ripsProtoculture - Refractions (2003)2 - Protoculture - Silicon Sunrise.wav
Peak level 98.8 %
Track quality 100.0 %
Test CRC 02A7EB86
Copy CRC 02A7EB86
Accurately ripped (confidence 2) [3008B4A1]
Copy OK
Track 3
Filename C:Music_ripsProtoculture - Refractions (2003)3 - Protoculture - Magnetik.wav
Peak level 98.8 %
Track quality 100.0 %
Test CRC 83A7BBE1
Copy CRC 83A7BBE1
Accurately ripped (confidence 2) [371E3BAC]
Copy OK
Track 4
Filename C:Music_ripsProtoculture - Refractions (2003)4 - Protoculture - Refractions.wav
Peak level 98.8 %
Track quality 100.0 %
Test CRC C9DB3E37
Copy CRC C9DB3E37
Accurately ripped (confidence 2) [776973BF]
Copy OK
Track 5
Filename C:Music_ripsProtoculture - Refractions (2003)5 - Protoculture - Halusignorita.wav
Peak level 98.8 %
Track quality 100.0 %
Test CRC 318240B0
Copy CRC 318240B0
Accurately ripped (confidence 2) [C490B2ED]
Copy OK
Track 6
Filename C:Music_ripsProtoculture - Refractions (2003)6 - Protoculture - More Directions.wav
Peak level 98.8 %
Track quality 100.0 %
Test CRC 09C694D3
Copy CRC 09C694D3
Accurately ripped (confidence 2) [F7DFE1C2]
Copy OK
Track 7
Filename C:Music_ripsProtoculture - Refractions (2003)7 - Protoculture - Avalon.wav
Peak level 98.8 %
Track quality 100.0 %
Test CRC EAE9186F
Copy CRC EAE9186F
Accurately ripped (confidence 2) [CEF096D7]
Copy OK
Track 8
Filename C:Music_ripsProtoculture - Refractions (2003)8 - Protoculture - High Orbit.wav
Peak level 98.8 %
Track quality 100.0 %
Test CRC 67C5A93A
Copy CRC 67C5A93A
Accurately ripped (confidence 2) [7CACF4C5]
Copy OK
Track 9
Filename C:Music_ripsProtoculture - Refractions (2003)9 - Protoculture - Melody Machine.wav
Peak level 100.0 %
Track quality 99.9 %
Test CRC 83A4A5BE
Copy CRC 83A4A5BE
Accurately ripped (confidence 2) [23E290D3]
Copy OK
All tracks accurately ripped
No errors occurred
End of status report

CUE 
PERFORMER "Protoculture"
TITLE "Refractions"
FILE "01-Protoculture_-_Homeworld.wav" WAVE
TRACK 01 AUDIO
TITLE "Homeworld"
PERFORMER "Protoculture"
INDEX 01 00:00:00
FILE "02-Protoculture_-_Silicon_Sunrise.wav" WAVE
TRACK 02 AUDIO
TITLE "Silicon Sunrise"
PERFORMER "Protoculture"
INDEX 01 00:00:00
FILE "03-Protoculture_-_Magnetik.wav" WAVE
TRACK 03 AUDIO
TITLE "Magnetik"
PERFORMER "Protoculture"
INDEX 01 00:00:00
FILE "04-Protoculture_-_Refractions.wav" WAVE
TRACK 04 AUDIO
TITLE "Refractions"
PERFORMER "Protoculture"
INDEX 01 00:00:00
FILE "05-Protoculture_-_Halusignorita.wav" WAVE
TRACK 05 AUDIO
TITLE "Halusignorita"
PERFORMER "Protoculture"
INDEX 01 00:00:00
FILE "06-Protoculture_-_More_Directions.wav" WAVE
TRACK 06 AUDIO
TITLE "More Directions"
PERFORMER "Protoculture"
INDEX 01 00:00:00
FILE "07-Protoculture_-_Avalon.wav" WAVE
TRACK 07 AUDIO
TITLE "Avalon"
PERFORMER "Protoculture"
INDEX 01 00:00:00
FILE "08-Protoculture_-_High_Orbit.wav" WAVE
TRACK 08 AUDIO
TITLE "High Orbit"
PERFORMER "Protoculture"
INDEX 01 00:00:00
FILE "09-Protoculture_-_Melody_Machine.wav" WAVE
TRACK 09 AUDIO
TITLE "Melody Machine"
PERFORMER "Protoculture"
INDEX 01 00:00:00

From

 


Другие раздачи от "MISHKA-N@VIG@TOR-":

Скачайте раздачи, которые скачивают вместе с "(Psy-Trance) Protoculture - Refractions - 2003, FLAC (tracks+.cue), lossless":


Новые ТОП дня ТОП недели
» Семь смертных грехов / Nanatsu no Taizai - The Seven Deadly Sins [01-18 из 24] (2014) HDTVRip 720p
Информация о фильме Название: Семь смертных грехов Оригинальное название: Nanatsu...

» Тени прошлого [01-02 из 02] (2014) HDTVRip от Шкипер
Информация о фильме Название: Тени прошлого Год выхода: 2014 Жанр: Мелодрама Режиссер:...

» Сексуальная одержимость / Evil Obsession (1996) VHSRip ale x2008 | A
Информация о фильме Название: Сексуальная одержимость Оригинальное название: Evil...

» Elle King - Love Stuff (2015) FLAC
Название: Love Stuff Исполнитель: Эль Кинг Год: 2015 Жанр: Indie-Pop Продолжительность: 00:49:29 Формат/Кодек:...

» Волшебная ферма (2015) Android
Год выпуска: 2015г. Жанр: Для всей семьи Разработчик: Game Garden™ Язык интерфейса: Русский Таблэтка:...

» Life Is Strange. Episode 1 [Update 3] (2015) PC | RePack от xatab
ИНФОРМАЦИЯ: Год выпуска: 2015 Жанр: Action, Adventure Разработчик: DONTNOD Entertainment Издательство:...

» Секретное оружие / Aberne og det hemmelige våben (1995) DVDRip | D
Информация о фильме Название: Секретное оружие Оригинальное название: Aberne og det hemmelige...


» Разумное сомнение / Reasonable Doubt (2014) BDRip-AVC от MediaClub | A
Информация о фильме Название: Разумное сомнение Оригинальное название: Reasonable Doubt Год...

» Хэйвен / Тайны Хейвена / Haven [S01-04] (2010-2013) WEB-DLRip | Кубик в Кубе
Название: Хэйвен / Тайны Хейвена Оригинальное название: Haven Год выхода: 2010-2013 Страна:...

» Фил Спектор / Phil Spector (2013) HDRip |L1
Информация о фильме Название: Фил Спектор Оригинальное название: Phil Spector Год выхода:...

» Сонная лощина / Sleepy Hollow [01х05-11] (2013) HDTV 720p | Kerob
Информация о фильме Название: Сонная лощина Оригинальное название: Sleepy Hollow Год...

» Женщина в клетке / Мистериум. Начало / Kvinden i Buret / The Woman in the Cage (2013) BDRemux 1080p от GORESEWAGE
Женщина в клетке / Мистериум. Начало / Kvinden i Buret / The Woman in the Cage / The Keeper of Lost Causes Год выпуска:...

» Цель номер один / Zero Dark Thirty (2012) BDRip 1080p от Neofilm
Информация о фильме Название: Цель номер один Оригинальное название: Zero Dark Thirty Год...

» Малена / Malena (2000) BDRemux 1080p от ExKinoRay | Uncut version | Лицензия, A
Информация о фильме Название: Малена Оригинальное название: Malena Год выпуска:...


» Ingested - The Architect Of Extinction (2015) MP3
Название: The Architect Of Extinction Исполнитель: Ingested Год: 2015 Жанр: Brutal Death Metal Продолжительность:...

» VA - Berlin to Ibiza (2015) MP3
Название: Berlin to Ibiza Исполнитель: VA Год: 2015 Жанр: House, Club Продолжительность: 04:33:20 Формат/Кодек:...

» Мафиози-привидения / Hantu Gangster (2012) DVDRip
Информация о фильме Название: Мафиози-привидения Оригинальное название: Hantu Gangster Год...

» Агент Картер / Marvel Agent Carter [01x01 из XX] (2014 - 2015) WEB-DLRip | LostFilm
Информация о фильме Название: Агент Картер Оригинальное название: Marvel Agent Carter Год...

» Невилл Адам - Ритуал (2015) МР3
Название: Ритуал Жанр: Мистика, Хоррор Автор: Невилл Адам Озвучивают: Владимир...

» Хороший год / A Good Year (2006) BDRip 720p
Страна: США, Великобритания Жанр: драма, мелодрама, комедия Год выпуска: 2006 Продолжительность:...

» Kaspersky World 1.3.20.0 (2015) РС
Год выпуска: 2015 Версия: 1.3.20.0 Разработчик: forum.ru-board.com Платформа: x86 / x64 Системные требования:...



Вы можете разместить ссылку для скачивания (Psy-Trance) Protoculture - Refractions - 2003, FLAC (tracks+.cue), lossless на своем сайте, блоге, любимом форуме или просто поделиться ей с друзьями:

HTML-ссылка:


Ссылка для форума:


Прямая ссылка на страницу:





Copyright 2009-2012 DataHunt
Обратная связь